Yukemuri Sniper | Robert Downey Jr. | Поделиться в Вконтакте

Mari Boine - See The Woman (2017) [Official Digital Download]

Posted By: HDV
Mari Boine - See The Woman (2017) [Official Digital Download]

Mari Boine - See The Woman (2017)
FLAC (tracks) 24-bit/44,1 kHz | Time - 64:21 minutes | 740 MB
Studio Master, Official Digital Download | Artwork: Front cover

The ancient shamanistic musical traditions of the Sami of northern Scandinavia are given a modern twist by vocalist and drummer Mari Boine (Persen). Although her highly rhythmic songs are rooted in the wordless, yodeling-like vocal style of yoik (or joik), Boine's arrangements incorporate influences of jazz, rock, and other ethnic elements. "See the Woman" it's a debut in a two fold respect: Sami singer Mari Boine's first album completely in English and her first album for the label MPS, recorded by producer Tobias Frøberg. A melancholic, spherical pop sound meets a sophisticated lyrical concept.



Tracklist:

01 - Today Starts Now
02 - Chasing Myself into Reality
03 - See the Woman
04 - Some Say I Got Devil
05 - Happily Ever After
06 - 2-4-6-7-8-9 in One
07 - Yes
08 - Teepee Room
09 - This Is My Heart
10 - Twin Soul
11 - Adine & Isak (My Treasures)
12 - Crowded Streets of Blue

Analyzed: Mari Boine / See the Woman
––––––––––––––––––––––––––––––––––––––––

DR Peak RMS Duration Track
––––––––––––––––––––––––––––––––––––––––
DR7 -0.20 dB -8.63 dB 5:15 01-Today Starts Now
DR6 -0.20 dB -8.10 dB 6:12 02-Chasing Myself into Reality
DR7 -0.20 dB -8.08 dB 4:51 03-See the Woman
DR8 -0.20 dB -10.94 dB 6:46 04-Some Say I Got Devil
DR7 -0.20 dB -9.98 dB 5:32 05-Happily Ever After
DR6 -0.20 dB -7.51 dB 5:02 06-2-4-6-7-8-9 in One
DR6 -0.20 dB -7.88 dB 4:20 07-Yes
DR6 -0.20 dB -7.56 dB 5:28 08-Teepee Room
DR6 -0.10 dB -9.12 dB 5:22 09-This Is My Heart
DR7 -0.20 dB -9.33 dB 4:13 10-Twin Soul
DR9 -0.20 dB -12.47 dB 4:07 11-Adine & Isak (My Treasures)
DR8 -0.20 dB -10.53 dB 7:14 12-Crowded Streets of Blue
––––––––––––––––––––––––––––––––––––––––

Number of tracks: 12
Official DR value: DR7

Samplerate: 44100 Hz
Channels: 2
Bits per sample: 24
Bitrate: 1536 kbps
Codec: FLAC
================================================================================


Thanks to the Original customer!