Play Movie | Slam Dunk | Patrick Melrose 8.5

Eridanus - Cazzati: Amor Profano, Amor Sacro, Secular and Sacred Vocal Music (2018) [Official Digital Download 24/88]

Posted By: SERTiL
Eridanus - Cazzati: Amor Profano, Amor Sacro, Secular and Sacred Vocal Music (2018) [Official Digital Download 24/88]

Eridanus - Cazzati: Amor Profano, Amor Sacro, Secular and Sacred Vocal Music (2018)
FLAC (tracks) 24-bit/88.2 kHz | Time - 115:00 minutes | 1.82 GB
Studio Master, Official Digital Download | Artwork: Digital Booklet

In this double‐album set the Italian ensemble Eridanus brings to light the lesser‐known vocal music of an unjustly neglected 17th-century composer, Maurizio Cazzati (1616-1678). While his instrumental music has enjoyed resurgence in the recent period music revival, this record represents a pioneering interpretation of Cazzati’s large and varied vocal output (which forms a substantial part of the oeuvre of this very prolific composer) featuring numerous world premieres.

The music is divided between the discs into secular music (cantatas and canzonette written, unusually for the period, for the tenor voice) and sacred music (motets, antiphons and cantatas, also for solo voice).

Interspersed among the vocal music on both discs are instrumental works including dances, ostinato compositions and several sonatas, a genre Cazzati played an important role in developing.

The Eridanus ensemble is formed of eminent soloists in their fields, each of them active in other ensembles of note and much sought‐after on the early music scene in Italy and abroad.

Tracklist:
01. Capriccio detto "Il Melara"
02. Sonetto sopra sÌ e no
03. L'amante ladro
04. Capriccio sopra sette note
05. L'amante povero
06. L'amante consigliero
07. Passacaglio
08. L'amante spergiuro
09. L'amante sdegnato
10. Correnti e balletti per sonare nella spinetta, Op. 30: I. Correnti prima, decima e nona
11. L'amante incostante
12. L'amante pigro
13. Correnti "la guastallesa", "la Gonzaga" & "la luzzara"
14. Barzelletta a donna crudele
15. Barzelletta a quel core ch'arde d'amore
16. Sonata la varana
17. L'amante Vecchio
18. L'amante musico
19. Ciaccona e nallo della ciaccona
20. Che fo, che tardo?
21. Ut queant laxis
22. Madrigale al crocefisso
23. Sonata "la pellicana"
24. Ave virgo Maria
25. Ave maris stella
26. Capriccio sopra sedici note
27. Già la nova improvvisa
28. Sonata "la nanna"
29. Ave regina coelorum
30. Sanctorum meritis
31. Salve regina

foobar2000 1.3.7 / Dynamic Range Meter 1.1.1
log date: 2018-07-11 19:47:18

––––––––––––––––––––––––––––––––––––––––
Analyzed: Alessio Tosi, Eridanus, Paolo Giorgi / Cazzati: Amor Profano, Amor Sacro, Secular and Sacred Vocal Music (1)
Eridanus, Alessio Tosi, Paolo Giorgi / Cazzati: Amor Profano, Amor Sacro, Secular and Sacred Vocal Music (2-4)
Eridanus, Paolo Giorgi, Alessio Tosi, Marta Redaelli / Cazzati: Amor Profano, Amor Sacro, Secular and Sacred Vocal Music (5)
Eridanus, Paolo Giorgi, Alessio Tosi / Cazzati: Amor Profano, Amor Sacro, Secular and Sacred Vocal Music (6-28)
Eridanus, Paolo Giorgi, Marta Redaelli / Cazzati: Amor Profano, Amor Sacro, Secular and Sacred Vocal Music (29-31)
––––––––––––––––––––––––––––––––––––––––

DR Peak RMS Duration Track
––––––––––––––––––––––––––––––––––––––––
DR14 -3.35 dB -22.67 dB 2:16 05-L'amante povero
DR16 -7.81 dB -28.98 dB 4:02 02-Sonetto sopra sÌ e no
DR14 -3.45 dB -23.78 dB 1:50 03-L'amante ladro
DR13 -9.07 dB -26.93 dB 5:53 04-Capriccio sopra sette note
DR16 -0.48 dB -26.15 dB 5:38 25-Ave maris stella
DR10 -9.08 dB -22.44 dB 1:21 01-Capriccio detto "Il Melara"
DR14 -11.60 dB -31.77 dB 1:56 06-L'amante consigliero
DR13 -7.75 dB -27.45 dB 3:27 07-Passacaglio
DR15 -1.25 dB -22.11 dB 2:01 08-L'amante spergiuro
DR14 -3.50 dB -21.85 dB 4:17 09-L'amante sdegnato
DR14 -15.12 dB -32.68 dB 2:54 10-Correnti e balletti per sonare nella spinetta, Op. 30: I. Correnti prima, decima e nona
DR14 -9.33 dB -28.60 dB 3:22 11-L'amante incostante
DR14 -3.93 dB -23.63 dB 4:09 12-L'amante pigro
DR11 -8.74 dB -23.22 dB 3:15 13-Correnti "la guastallesa", "la Gonzaga" & "la luzzara"
DR15 -0.94 dB -23.22 dB 1:52 14-Barzelletta a donna crudele
DR13 -4.89 dB -23.95 dB 2:08 15-Barzelletta a quel core ch'arde d'amore
DR13 -4.97 dB -23.15 dB 3:25 16-Sonata la varana
DR14 -5.21 dB -27.90 dB 3:46 17-L'amante Vecchio
DR14 -1.34 dB -22.92 dB 1:43 18-L'amante musico
DR13 -5.52 dB -23.23 dB 3:04 19-Ciaccona e nallo della ciaccona
DR16 -2.40 dB -24.66 dB 5:32 20-Che fo, che tardo_
DR15 -9.60 dB -30.72 dB 2:55 22-Madrigale al crocefisso
DR11 -9.08 dB -23.29 dB 4:12 23-Sonata _la pellicana_
DR13 -7.92 dB -25.00 dB 4:49 26-Capriccio sopra sedici note
DR17 -6.00 dB -27.51 dB 4:52 27-Già la nova improvvisa
DR11 -8.57 dB -23.28 dB 4:45 28-Sonata _la nanna_
DR16 -7.59 dB -28.59 dB 4:16 29-Ave regina coelorum
DR14 -5.67 dB -25.20 dB 8:14 31-Salve regina
DR16 -3.50 dB -24.08 dB 3:56 21-Ut queant laxis
DR17 -0.68 dB -23.37 dB 6:09 24-Ave virgo Maria
DR13 -1.63 dB -21.80 dB 3:15 30-Sanctorum meritis
––––––––––––––––––––––––––––––––––––––––

Number of tracks: 31
Official DR value: DR14

Samplerate: 88200 Hz
Channels: 2
Bits per sample: 24
Bitrate: 2250 kbps
Codec: FLAC
================================================================================


Thanks to the Original customer.