IObit Driver Booster PRO 5.5.1.844 Final (2018) PC | RePack Portable by TryRooM | El Infinito BluRay MicroHD | Aur Devdas (2018) (HD)

Cornelia Murr - Lake Tear of the Clouds (2018) [Official Digital Download 24/96]

Posted By: SERTiL
Cornelia Murr - Lake Tear of the Clouds (2018) [Official Digital Download 24/96]

Cornelia Murr - Lake Tear of the Clouds (2018)
FLAC (tracks) 24-bit/96 kHz | Time - 31:57 minutes | 557 MB
Studio Master, Official Digital Download | Artwork: Front Cover

On her debut album Lake Tear of the Clouds, Los Angeles-based singer/songwriter Cornelia Murr taps into the bucolic spirit of the Hudson Valley in upper New York State. Working with producer Jim James of My Morning Jacket, Murr conjures a hazy blend of folk and cosmic soul music, her voice floating over ghostly soundscapes that bring to mind the fantasias of Broadcast, Stereolab’s most pastoral moments, and the spooky romance of Beach House. Murr was born in London and resides in California as a dual citizen, but spent much of her childhood moving through the United States, from Colorado to Massachusetts, California to New York City and upstate New York. It’s the latter locale that most informs the spiritual geography of the album, which invokes the cyclical journey of water from the highest point in the Adirondack Mountains to the valley below and out to sea. Like that water, Murr’s voice flows with a liquid grace.



Tracklist:
1. Different This Time (03:55)
2. Tokyo Kyoto (04:09)
3. Man on My Mind (03:45)
4. Cicada (04:04)
5. Who Am I to Tell You (03:24)
6. Billions (03:25)
7. I Have a Woman Inside My Soul (05:17)
8. You Got Me (03:58)

foobar2000 1.3.7 / Dynamic Range Meter 1.1.1
log date: 2018-07-12 12:18:45

––––––––––––––––––––––––––––––––––––––––
Analyzed: Cornelia Murr / Lake Tear of the Clouds
––––––––––––––––––––––––––––––––––––––––

DR Peak RMS Duration Track
––––––––––––––––––––––––––––––––––––––––
DR11 -2.00 dB -15.93 dB 3:56 01-Different This Time
DR10 -2.00 dB -14.69 dB 4:09 02-Tokyo Kyoto
DR12 -1.22 dB -16.27 dB 3:46 03-Man On My Mind
DR10 -2.00 dB -13.77 dB 4:04 04-Cicada
DR10 -2.00 dB -13.04 dB 3:24 05-Who Am I To Tell You
DR10 -2.00 dB -14.28 dB 3:25 06-Billions
DR10 -2.00 dB -13.91 dB 5:17 07-I Have A Woman Inside My Soul
DR9 -2.00 dB -14.04 dB 3:59 08-You Got Me
––––––––––––––––––––––––––––––––––––––––

Number of tracks: 8
Official DR value: DR10

Samplerate: 96000 Hz
Channels: 2
Bits per sample: 24
Bitrate: 2068 kbps
Codec: FLAC
================================================================================


Thanks to the Original customer.